Breeders (1986) 1080p BluRay x264 [Dual Audio] [Hindi 2.0 - Engli...

  • Category Movies
  • Type Dubs/Dual Audio
  • Language Hindi
  • Total size 1.5 GB
  • Uploaded By monu987
  • Downloads 1241
  • Last checked 2 months ago
  • Date uploaded 2 years ago
  • Seeders 0
  • Leechers 0

Breeders

HorrorThrillerScience Fiction

An otherwordly perpetrator has been attacking female virgins in Manhattan. As Dr. Pace and Detective Andriotti work together to identify the strange organic materials found on the women, the victims begin arising in a trance and leaving the hospital.

Infohash : AC91CB4C2FAE0A0E444649B1E652D4E82A1890D8


Breeders (1986) 1080p BluRay x264 [Dual Audio] [Hindi 2.0 - English] - monu987






Quote:



Breeders (1986) 1080p BluRay x264 [Dual Audio] [Hindi 2.0 - English] - monu987
Format : Matroska
Format version : Version 4 / Version 2
File size : 1.50 GiB
Duration : 1h 13mn
Overall bit rate : 2 896 Kbps


Video
ID : 1
Format : AVC
Format/Info : Advanced Video Codec
Format profile : [email protected]
Format settings, CABAC : Yes
Format settings, ReFrames : 4 frames
Codec ID : V_MPEG4/ISO/AVC
Duration : 1h 13mn
Bit rate : 2 503 Kbps
Width : 1 920 pixels
Height : 1 040 pixels
Display aspect ratio : 1.85:1
Frame rate mode : Constant
Frame rate : 25.000 fps
Original frame rate : 23.976 fps
Color space : YUV
Chroma subsampling : 4:2:0
Bit depth : 8 bits
Scan type : Progressive
Bits/(Pixel*Frame) : 0.050
Stream size : 1.32 GiB (88%)
Title : monu987
Writing library : x264 core 142 r2431 ac76440
Color range : Limited
Color primaries : Generic film
Transfer characteristics : BT.709
Matrix coefficients : BT.709

Audio #1
ID : 2
Format : AC-3
Format/Info : Audio Coding 3
Mode extension : CM (complete main)
Format settings, Endianness : Big
Codec ID : A_AC3
Duration : 1h 13mn
Bit rate mode : Constant
Bit rate : 96.0 Kbps
Channel(s) : 2 channels
Channel positions : Front: L R
Sampling rate : 44.1 KHz
Bit depth : 16 bits
Compression mode : Lossy
Delay relative to video : 1s 265ms
Stream size : 50.8 MiB (3%)
Title : monu987
Language : Hindi
Default : Yes
Forced : Yes

Audio #2
ID : 3
Format : AC-3
Format/Info : Audio Coding 3
Mode extension : CM (complete main)
Format settings, Endianness : Big
Codec ID : A_AC3
Duration : 1h 13mn
Bit rate mode : Constant
Bit rate : 192 Kbps
Channel(s) : 2 channels
Channel positions : Front: L R
Sampling rate : 48.0 KHz
Bit depth : 16 bits
Compression mode : Lossy
Stream size : 102 MiB (7%)
Title : monu987
Language : English
Default : No
Forced : No





Special Thanks to Badur For Hindi Audio Source



Note: No Watermarks/Tags in Audio & Video ;).... Enjoy Movie:)










**Please Seed After Download**

Files:

  • Breeders (1986) 1080p BluRay x264 [Dual Audio] [Hindi 2.0 - English] - monu987.mkv (1.5 GB)
  • Poster.jpg (110.0 KB)
  • Sample.mkv (23.8 MB)
ScreenShots
  • 01.png (1.4 MB)
  • 02.png (1.4 MB)
  • 03.png (1.2 MB)
  • 04.png (1.4 MB)
  • 05.png (1.4 MB)
  • 06.png (1.2 MB)
  • 07.png (1.3 MB)
  • 08.png (1.4 MB)
  • 09.png (1.2 MB)
  • 10.png (1.1 MB)
  • Torrent Downloaded From ExtraTorrent.cc.txt (0.3 KB)

There are currently no comments. Feel free to leave one :)

Code:

  • udp://coppersurfer.tk:6969/announce
  • http://tracker.aletorrenty.pl:2710/announce
  • udp://tracker.opentrackr.org:1337/announce
  • udp://p4p.arenabg.com:1337/announce
  • udp://p4p.arenabg.ch:1337/announce
  • udp://glotorrents.pw:6969/announce
  • udp://eddie4.nl:6969/announce
  • udp://tracker.blackunicorn.xyz:6969/announce
  • udp://tracker.leechers-paradise.org:6969/announce
  • http://tracker.pubt.net:2710/announce
  • udp://9.rarbg.me:2710/announce
  • udp://11.rarbg.com/announce
SitemapDownloaden APK | Vedi Prodotto | file_downloadTélécharger